<?xml version="1.0" standalone="no"?>
<!DOCTYPE svg PUBLIC "-//W3C//DTD SVG 1.1//EN" "http://www.w3.org/Graphics/SVG/1.1/DTD/svg11.dtd" >
<svg xmlns="http://www.w3.org/2000/svg">
<metadata>Generated by IcoMoon</metadata>
<defs>
<font id="docizi" horiz-adv-x="1024">
<font-face units-per-em="1024" ascent="960" descent="-64" />
<missing-glyph horiz-adv-x="1024" />
<glyph unicode="&#x20;" horiz-adv-x="512" d="" />
<glyph unicode="&#xe900;" glyph-name="Icone-calendrier" d="M253.562 137.55h109.714v109.714h-109.714v-109.714zM387.657 137.55h121.905v109.714h-121.905v-109.714zM253.562 271.645h109.714v121.905h-109.714v-121.905zM387.657 271.645h121.905v121.905h-121.905v-121.905zM253.562 417.93h109.714v109.714h-109.714v-109.714zM533.943 137.55h121.905v109.714h-121.905v-109.714zM387.657 417.93h121.905v109.714h-121.905v-109.714zM680.229 137.55h109.714v109.714h-109.714v-109.714zM533.943 271.645h121.905v121.905h-121.905v-121.905zM399.848 600.788v109.714c0 3.302-1.206 6.159-3.619 8.571s-5.27 3.619-8.571 3.619h-24.381c-3.302 0-6.159-1.206-8.571-3.619s-3.619-5.27-3.619-8.571v-109.714c0-3.302 1.206-6.159 3.619-8.571s5.27-3.619 8.571-3.619h24.381c3.302 0 6.159 1.206 8.571 3.619s3.619 5.27 3.619 8.571zM680.229 271.645h109.714v121.905h-109.714v-121.905zM533.943 417.93h121.905v109.714h-121.905v-109.714zM680.229 417.93h109.714v109.714h-109.714v-109.714zM692.419 600.788v109.714c0 3.302-1.206 6.159-3.619 8.571s-5.27 3.619-8.571 3.619h-24.381c-3.302 0-6.159-1.206-8.571-3.619s-3.619-5.27-3.619-8.571v-109.714c0-3.302 1.206-6.159 3.619-8.571s5.27-3.619 8.571-3.619h24.381c3.302 0 6.159 1.206 8.571 3.619s3.619 5.27 3.619 8.571zM838.705 625.169v-487.619c0-13.206-4.825-24.635-14.476-34.286s-21.079-14.476-34.286-14.476h-536.381c-13.206 0-24.635 4.825-34.286 14.476s-14.476 21.079-14.476 34.286v487.619c0 13.206 4.825 24.635 14.476 34.286s21.079 14.476 34.286 14.476h48.762v36.571c0 16.762 5.968 31.111 17.905 43.048s26.286 17.905 43.048 17.905h24.381c16.762 0 31.111-5.968 43.048-17.905s17.905-26.286 17.905-43.048v-36.571h146.286v36.571c0 16.762 5.968 31.111 17.905 43.048s26.286 17.905 43.048 17.905h24.381c16.762 0 31.111-5.968 43.048-17.905s17.905-26.286 17.905-43.048v-36.571h48.762c13.206 0 24.635-4.825 34.286-14.476s14.476-21.079 14.476-34.286z" />
<glyph unicode="&#xe901;" glyph-name="Icone-menu-oeil" d="M874.463 404.115c-46.324 71.924-104.381 125.714-174.171 161.371 18.59-31.695 27.886-65.981 27.886-102.857 0-56.381-20.038-104.61-60.114-144.686s-88.305-60.114-144.686-60.114c-56.381 0-104.61 20.038-144.686 60.114s-60.114 88.305-60.114 144.686c0 36.876 9.295 71.162 27.886 102.857-69.79-35.657-127.848-89.448-174.171-161.371 40.533-62.476 91.352-112.229 152.457-149.257s127.314-55.543 198.629-55.543c71.314 0 137.524 18.514 198.629 55.543s111.924 86.781 152.457 149.257zM538.921 564.115c4.267 4.267 6.4 9.448 6.4 15.543s-2.133 11.276-6.4 15.543c-4.267 4.267-9.448 6.4-15.543 6.4-38.095 0-70.781-13.638-98.057-40.914s-40.914-59.962-40.914-98.057c0-6.095 2.133-11.276 6.4-15.543s9.448-6.4 15.543-6.4c6.095 0 11.276 2.133 15.543 6.4s6.4 9.448 6.4 15.543c0 26.21 9.295 48.61 27.886 67.2s40.99 27.886 67.2 27.886c6.095 0 11.276 2.133 15.543 6.4zM923.835 435.658c6.095-10.667 9.143-21.181 9.143-31.543s-3.048-20.876-9.143-31.543c-42.667-70.095-100.038-126.248-172.114-168.457s-148.19-63.314-228.343-63.314c-80.152 0-156.267 21.181-228.343 63.543s-129.448 98.438-172.114 168.229c-6.095 10.667-9.143 21.181-9.143 31.543s3.048 20.876 9.143 31.543c42.667 69.79 100.038 125.867 172.114 168.229s148.19 63.543 228.343 63.543c80.152 0 156.267-21.181 228.343-63.543s129.448-98.438 172.114-168.229z" />
<glyph unicode="&#xe902;" glyph-name="Icone-pouce" d="M267.632 207.999c5.79 5.79 8.686 12.648 8.686 20.571s-2.895 14.781-8.686 20.571c-5.79 5.79-12.648 8.686-20.571 8.686s-14.781-2.895-20.571-8.686c-5.79-5.79-8.686-12.648-8.686-20.571s2.895-14.781 8.686-20.571c5.79-5.79 12.648-8.686 20.571-8.686s14.781 2.895 20.571 8.686zM802.946 491.885c0 15.543-5.943 29.181-17.829 40.914s-25.448 17.6-40.686 17.6h-160.914c0 17.676 7.314 41.981 21.943 72.914s21.943 55.39 21.943 73.371c0 29.867-4.876 51.962-14.629 66.286s-29.257 21.486-58.514 21.486c-7.924-7.924-13.714-20.876-17.371-38.857s-8.305-37.105-13.943-57.371c-5.638-20.267-14.705-36.952-27.2-50.057-6.705-7.010-18.438-20.876-35.2-41.6-1.219-1.524-4.724-6.095-10.514-13.714s-10.59-13.867-14.4-18.743c-3.81-4.876-9.067-11.352-15.771-19.429s-12.8-14.781-18.286-20.114c-5.486-5.333-11.352-10.743-17.6-16.229s-12.343-9.6-18.286-12.343c-5.943-2.743-11.352-4.114-16.229-4.114h-14.629v-292.571h14.629c3.962 0 8.762-0.457 14.4-1.371s10.667-1.905 15.086-2.971c4.419-1.067 10.21-2.743 17.371-5.029s12.495-4.038 16-5.257c3.505-1.219 8.914-3.124 16.229-5.714s11.733-4.19 13.257-4.8c64.305-22.248 116.419-33.371 156.343-33.371h55.314c58.514 0 87.771 25.448 87.771 76.343 0 7.924-0.762 16.457-2.286 25.6 9.143 4.876 16.381 12.876 21.714 24s8 22.324 8 33.6c0 11.276-2.743 21.79-8.229 31.543 16.152 15.238 24.229 33.371 24.229 54.4 0 7.619-1.524 16.076-4.571 25.371s-6.857 16.533-11.429 21.714c9.752 0.305 17.905 7.467 24.457 21.486s9.829 26.362 9.829 37.029zM861.46 492.342c0-27.124-7.467-51.962-22.4-74.514 2.743-10.057 4.114-20.571 4.114-31.543 0-23.467-5.79-45.41-17.371-65.829 0.914-6.4 1.371-12.952 1.371-19.657 0-30.781-9.143-57.905-27.429-81.371 0.305-42.362-12.648-75.81-38.857-100.343s-60.8-36.8-103.771-36.8h-58.971c-29.257 0-58.133 3.429-86.629 10.286s-61.486 16.838-98.971 29.943c-35.352 12.19-56.381 18.286-63.086 18.286h-131.657c-16.152 0-29.943 5.714-41.371 17.143s-17.143 25.219-17.143 41.371v292.571c0 16.152 5.714 29.943 17.143 41.371s25.219 17.143 41.371 17.143h125.257c10.971 7.314 31.848 30.933 62.629 70.857 17.676 22.857 33.981 42.362 48.914 58.514 7.314 7.619 12.724 20.648 16.229 39.086s8.152 37.714 13.943 57.829c5.79 20.114 15.238 36.571 28.343 49.371 11.886 11.276 25.6 16.914 41.143 16.914 25.6 0 48.61-4.952 69.029-14.857s35.962-25.371 46.629-46.4c10.667-21.029 16-49.371 16-85.029 0-28.343-7.314-57.6-21.943-87.771h80.457c31.695 0 59.124-11.581 82.286-34.743s34.743-50.438 34.743-81.829z" />
<glyph unicode="&#xe903;" glyph-name="Icone-menu-deconexion" d="M456.636 805.216c-4.303-2.619-3.991 8.981-3.991-153.918 0-162.524-0.312-150.114 3.991-153.17l1.933-1.372h81.075l1.933 1.372c4.303 3.056 3.991-9.355 3.991 153.419v146.995l-1.31 2.619c-0.686 1.497-2.183 3.243-3.305 3.991-2.058 1.247-2.931 1.247-42.221 1.247-38.417 0-40.226-0.062-42.097-1.185zM411.172 712.229c-3.804-0.748-23.886-7.546-33.366-11.288-9.667-3.804-29.811-13.658-39.727-19.333-26.692-15.404-54.695-37.419-73.155-57.688-25.009-27.378-42.159-52.824-56.877-84.318-14.344-30.684-23.886-65.359-27.69-101.157-1.372-12.723-1.559-45.402-0.374-57.688 2.245-22.95 5.8-41.785 11.662-61.742 21.516-73.030 69.6-136.518 134.709-177.866 90.991-57.813 205.931-65.983 305.154-21.766 49.393 22.077 94.421 58.312 126.477 102.030 49.955 67.978 70.161 150.363 57.563 234.494-10.415 69.6-47.71 138.139-100.658 185.163-35.611 31.619-71.783 52.449-116.935 67.292-11.849 3.929-15.030 4.553-17.338 3.43-1.559-0.748-2.058-1.497-2.557-3.991-0.935-4.366-0.935-93.798 0-97.54 0.374-1.497 1.31-3.305 2.12-4.054s6.86-4.054 13.471-7.359c14.157-7.11 21.89-11.849 33.366-20.394 31.993-23.948 56.316-55.817 70.91-92.925 7.047-17.961 11.039-33.989 13.658-55.193 1.060-8.544 1.060-36.858 0-45.527-4.677-38.105-16.527-69.35-37.856-99.909-7.421-10.602-23.948-28.75-34.301-37.669-48.52-41.785-111.572-60.12-173.688-50.454-59.746 9.23-112.57 43.406-145.623 94.172-41.161 63.114-45.901 143.815-12.535 211.107 17.525 35.299 43.968 64.611 77.396 85.94 4.116 2.619 13.346 7.733 20.581 11.351 11.163 5.613 13.221 6.86 14.344 8.731 1.247 2.12 1.247 2.994 1.247 50.828 0 45.34-0.062 48.832-1.060 50.391-1.871 2.744-4.802 3.68-8.918 2.931z" />
<glyph unicode="&#xe904;" glyph-name="Icone-menu-aide" d="M594.335 266.514v-123.429c0-5.486-2.057-10.286-6.171-14.4s-8.914-6.171-14.4-6.171h-123.429c-5.486 0-10.286 2.057-14.4 6.171s-6.171 8.914-6.171 14.4v123.429c0 5.486 2.057 10.286 6.171 14.4s8.914 6.171 14.4 6.171h123.429c5.486 0 10.286-2.057 14.4-6.171s6.171-8.914 6.171-14.4zM756.849 575.086c0-18.514-2.657-35.829-7.971-51.943s-11.314-29.229-18-39.343c-6.686-10.114-16.114-20.314-28.286-30.6s-22.029-17.743-29.571-22.371c-7.543-4.629-18-10.714-31.371-18.257-14.057-7.886-25.8-19.029-35.229-33.429s-14.143-25.886-14.143-34.457c0-5.829-2.057-11.4-6.171-16.714s-8.914-7.971-14.4-7.971h-123.429c-5.143 0-9.514 3.171-13.114 9.514s-5.4 12.771-5.4 19.286v23.143c0 28.457 11.143 55.286 33.429 80.486s46.8 43.8 73.543 55.8c20.229 9.257 34.629 18.857 43.2 28.8s12.857 22.971 12.857 39.086c0 14.4-7.971 27.086-23.914 38.057s-34.371 16.457-55.286 16.457c-22.286 0-40.8-4.971-55.543-14.914-12-8.571-30.343-28.286-55.029-59.143-4.457-5.486-9.771-8.229-15.943-8.229-4.114 0-8.4 1.371-12.857 4.114l-84.343 64.286c-4.457 3.429-7.114 7.714-7.971 12.857s0.086 9.943 2.829 14.4c54.857 91.2 134.4 136.8 238.629 136.8 27.429 0 55.029-5.314 82.8-15.943s52.8-24.857 75.086-42.686c22.286-17.829 40.457-39.686 54.514-65.571s21.086-53.057 21.086-81.514z" />
<glyph unicode="&#xe905;" glyph-name="Icone-menu-intervention" d="M709.486 321.829v98.743c0 4.8-1.543 8.743-4.629 11.829s-7.029 4.629-11.829 4.629h-115.2v115.2c0 4.8-1.543 8.743-4.629 11.829s-7.029 4.629-11.829 4.629h-98.743c-4.8 0-8.743-1.543-11.829-4.629s-4.629-7.029-4.629-11.829v-115.2h-115.2c-4.8 0-8.743-1.543-11.829-4.629s-4.629-7.029-4.629-11.829v-98.743c0-4.8 1.543-8.743 4.629-11.829s7.029-4.629 11.829-4.629h115.2v-115.2c0-4.8 1.543-8.743 4.629-11.829s7.029-4.629 11.829-4.629h98.743c4.8 0 8.743 1.543 11.829 4.629s4.629 7.029 4.629 11.829v115.2h115.2c4.8 0 8.743 1.543 11.829 4.629s4.629 7.029 4.629 11.829zM380.343 700.343h263.314v65.829h-263.314v-65.829zM182.857 700.343v-658.286h-16.457c-31.543 0-58.629 11.314-81.257 33.943s-33.943 49.714-33.943 81.257v427.886c0 31.543 11.314 58.629 33.943 81.257s49.714 33.943 81.257 33.943h16.457zM791.771 700.343v-658.286h-559.543v658.286h82.286v82.286c0 13.714 4.8 25.371 14.4 34.971s21.257 14.4 34.971 14.4h296.229c13.714 0 25.371-4.8 34.971-14.4s14.4-21.257 14.4-34.971v-82.286h82.286zM972.8 585.143v-427.886c0-31.543-11.314-58.629-33.943-81.257s-49.714-33.943-81.257-33.943h-16.457v658.286h16.457c31.543 0 58.629-11.314 81.257-33.943s33.943-49.714 33.943-81.257z" />
<glyph unicode="&#xe906;" glyph-name="Icone-menu-documents" d="M923.429 711.314c13.714 0 25.371-4.8 34.971-14.4s14.4-21.257 14.4-34.971v-625.371c0-13.714-4.8-25.371-14.4-34.971s-21.257-14.4-34.971-14.4h-493.714c-13.714 0-25.371 4.8-34.971 14.4s-14.4 21.257-14.4 34.971v148.114h-279.771c-13.714 0-25.371 4.8-34.971 14.4s-14.4 21.257-14.4 34.971v345.6c0 13.714 3.429 28.8 10.286 45.257s15.086 29.486 24.686 39.086l209.829 209.829c9.6 9.6 22.629 17.829 39.086 24.686s31.543 10.286 45.257 10.286h213.943c13.714 0 25.371-4.8 34.971-14.4s14.4-21.257 14.4-34.971v-168.686c23.314 13.714 45.257 20.571 65.829 20.571h213.943zM643.657 601.771l-153.771-153.771h153.771v153.771zM314.514 799.257l-153.771-153.771h153.771v153.771zM415.314 466.514l162.514 162.514v213.943h-197.486v-213.943c0-13.714-4.8-25.371-14.4-34.971s-21.257-14.4-34.971-14.4h-213.943v-329.143h263.314v131.657c0 13.714 3.429 28.8 10.286 45.257s15.086 29.486 24.686 39.086zM906.971 53.029v592.457h-197.486v-213.943c0-13.714-4.8-25.371-14.4-34.971s-21.257-14.4-34.971-14.4h-213.943v-329.143h460.8z" />
<glyph unicode="&#xe907;" glyph-name="Icone-menu-compte" d="M341.314 229.771c6.514-6.514 9.771-14.229 9.771-23.143s-3.257-16.629-9.771-23.143c-6.514-6.514-14.229-9.771-23.143-9.771s-16.629 3.257-23.143 9.771c-6.514 6.514-9.771 14.229-9.771 23.143s3.257 16.629 9.771 23.143c6.514 6.514 14.229 9.771 23.143 9.771s16.629-3.257 23.143-9.771zM877.714 175.257c0-41.486-12.514-74.057-37.543-97.714s-58.286-35.486-99.771-35.486h-449.486c-41.486 0-74.743 11.829-99.771 35.486s-37.543 56.229-37.543 97.714c0 23.314 0.943 45.771 2.829 67.371s6 45.257 12.343 70.971c6.343 25.714 14.486 48.429 24.429 68.143s23.829 37.371 41.657 52.971c17.829 15.6 38.4 25.971 61.714 31.114-7.543-17.829-11.314-38.4-11.314-61.714v-104.4c-19.886-6.857-35.829-18.857-47.829-36s-18-36.171-18-57.086c0-27.429 9.6-50.743 28.8-69.943s42.514-28.8 69.943-28.8c27.429 0 50.743 9.6 69.943 28.8s28.8 42.514 28.8 69.943c0 20.914-6.086 39.943-18.257 57.086s-28.029 29.143-47.571 36v104.4c0 21.257 4.286 37.2 12.857 47.829 45.257-35.657 95.829-53.486 151.714-53.486s106.457 17.829 151.714 53.486c8.571-10.629 12.857-26.571 12.857-47.829v-32.914c-36.343 0-67.371-12.857-93.086-38.571s-38.571-56.743-38.571-93.086v-45.771c-10.971-9.943-16.457-22.114-16.457-36.514 0-13.714 4.8-25.371 14.4-34.971s21.257-14.4 34.971-14.4c13.714 0 25.371 4.8 34.971 14.4s14.4 21.257 14.4 34.971c0 14.4-5.486 26.571-16.457 36.514v45.771c0 17.829 6.514 33.257 19.543 46.286s28.457 19.543 46.286 19.543c17.829 0 33.257-6.514 46.286-19.543s19.543-28.457 19.543-46.286v-45.771c-10.971-9.943-16.457-22.114-16.457-36.514 0-13.714 4.8-25.371 14.4-34.971s21.257-14.4 34.971-14.4c13.714 0 25.371 4.8 34.971 14.4s14.4 21.257 14.4 34.971c0 14.4-5.486 26.571-16.457 36.514v45.771c0 23.314-5.914 45.171-17.743 65.571s-27.857 36.429-48.086 48.086c0 3.429 0.086 10.714 0.257 21.857s0.171 19.371 0 24.686c-0.171 5.314-0.6 12.429-1.286 21.343s-1.886 16.971-3.6 24.171c-1.714 7.2-3.943 14.057-6.686 20.571 23.314-5.143 43.886-15.514 61.714-31.114s31.714-33.257 41.657-52.971c9.943-19.714 18.086-42.429 24.429-68.143s10.457-49.371 12.343-70.971c1.886-21.6 2.829-44.057 2.829-67.371zM655.029 773.886c38.743-38.4 58.114-84.857 58.114-139.371s-19.286-101.057-57.857-139.629c-38.571-38.571-85.114-57.857-139.629-57.857s-101.057 19.286-139.629 57.857c-38.571 38.571-57.857 85.114-57.857 139.629s19.286 101.057 57.857 139.629c38.571 38.571 85.114 57.857 139.629 57.857s100.971-19.371 139.371-58.114z" />
<glyph unicode="&#xe908;" glyph-name="Icone-menu-accueil" d="M813.2 400.743v-246.857c0-8.914-3.257-16.629-9.771-23.143s-14.229-9.771-23.143-9.771h-197.486v197.486h-131.657v-197.486h-197.486c-8.914 0-16.629 3.257-23.143 9.771s-9.771 14.229-9.771 23.143v246.857c0 0.343 0.086 0.857 0.257 1.543s0.257 1.2 0.257 1.543l295.714 243.771 295.714-243.771c0.343-0.686 0.514-1.714 0.514-3.086zM927.886 436.229l-31.886-38.057c-2.743-3.086-6.343-4.971-10.8-5.657h-1.543c-4.457 0-8.057 1.2-10.8 3.6l-355.886 296.743-355.886-296.743c-4.114-2.743-8.229-3.943-12.343-3.6-4.457 0.686-8.057 2.571-10.8 5.657l-31.886 38.057c-2.743 3.429-3.943 7.457-3.6 12.086s2.229 8.314 5.657 11.057l369.771 308.057c10.971 8.914 24 13.371 39.086 13.371s28.114-4.457 39.086-13.371l125.486-104.914v100.286c0 4.8 1.543 8.743 4.629 11.829s7.029 4.629 11.829 4.629h98.743c4.8 0 8.743-1.543 11.829-4.629s4.629-7.029 4.629-11.829v-209.829l112.629-93.6c3.429-2.743 5.314-6.429 5.657-11.057s-0.857-8.657-3.6-12.086z" />
<glyph unicode="&#xe909;" glyph-name="Icone-menu-ouvrir" d="M644.857 463.829c6.514-6.514 9.771-14.229 9.771-23.143s-3.257-16.629-9.771-23.143l-230.4-230.4c-6.514-6.514-14.229-9.771-23.143-9.771s-16.629 3.257-23.143 9.771c-6.514 6.514-9.771 14.229-9.771 23.143v460.8c0 8.914 3.257 16.629 9.771 23.143s14.229 9.771 23.143 9.771c8.914 0 16.629-3.257 23.143-9.771l230.4-230.4z" />
<glyph unicode="&#xe90a;" glyph-name="Icone-menu-fermer" d="M654.629 671.086v-460.8c0-8.914-3.257-16.629-9.771-23.143s-14.229-9.771-23.143-9.771c-8.914 0-16.629 3.257-23.143 9.771l-230.4 230.4c-6.514 6.514-9.771 14.229-9.771 23.143s3.257 16.629 9.771 23.143l230.4 230.4c6.514 6.514 14.229 9.771 23.143 9.771s16.629-3.257 23.143-9.771c6.514-6.514 9.771-14.229 9.771-23.143z" />
<glyph unicode="&#xe90b;" glyph-name="Icone-male" d="M741.181 521.143v-190.171c0-12.19-4.267-22.552-12.8-31.086s-18.895-12.8-31.086-12.8c-12.19 0-22.552 4.267-31.086 12.8s-12.8 18.895-12.8 31.086v160.914h-29.257v-416.914c0-14.019-5.029-26.057-15.086-36.114s-22.095-15.086-36.114-15.086c-14.019 0-26.057 5.029-36.114 15.086s-15.086 22.095-15.086 36.114v212.114h-29.257v-212.114c0-14.019-5.029-26.057-15.086-36.114s-22.095-15.086-36.114-15.086c-14.019 0-26.057 5.029-36.114 15.086s-15.086 22.095-15.086 36.114v416.914h-29.257v-160.914c0-12.19-4.267-22.552-12.8-31.086s-18.895-12.8-31.086-12.8c-12.19 0-22.552 4.267-31.086 12.8s-12.8 18.895-12.8 31.086v190.171c0 24.381 8.533 45.105 25.6 62.171s37.79 25.6 62.171 25.6h292.571c24.381 0 45.105-8.533 62.171-25.6s25.6-37.79 25.6-62.171zM579.352 798.172c20.114-19.81 30.171-43.886 30.171-72.229s-9.981-52.495-29.943-72.457c-19.962-19.962-44.114-29.943-72.457-29.943s-52.495 9.981-72.457 29.943c-19.962 19.962-29.943 44.114-29.943 72.457s9.981 52.495 29.943 72.457c19.962 19.962 44.114 29.943 72.457 29.943s52.419-10.057 72.229-30.171z" />
<glyph unicode="&#xe90c;" glyph-name="Icone-file" d="M627.403 608.913v215.771c6.705-4.267 12.19-8.533 16.457-12.8l186.514-186.514c4.267-4.267 8.533-9.752 12.8-16.457h-215.771zM568.889 594.285c0-12.19 4.267-22.552 12.8-31.086s18.895-12.8 31.086-12.8h248.686v-482.743c0-12.19-4.267-22.552-12.8-31.086s-18.895-12.8-31.086-12.8h-614.4c-12.19 0-22.552 4.267-31.086 12.8s-12.8 18.895-12.8 31.086v731.429c0 12.19 4.267 22.552 12.8 31.086s18.895 12.8 31.086 12.8h365.714v-248.686z" />
<glyph unicode="&#xe90d;" glyph-name="Icone-calc" d="M271.949 99.656c11.581 11.276 17.371 24.99 17.371 41.143s-5.714 29.943-17.143 41.371c-11.429 11.429-25.219 17.143-41.371 17.143s-29.943-5.714-41.371-17.143c-11.429-11.429-17.143-25.219-17.143-41.371s5.714-29.943 17.143-41.371c11.429-11.429 25.219-17.143 41.371-17.143s29.867 5.79 41.143 17.371zM447.492 99.656c11.581 11.276 17.371 24.99 17.371 41.143s-5.714 29.943-17.143 41.371c-11.429 11.429-25.219 17.143-41.371 17.143s-29.943-5.714-41.371-17.143c-11.429-11.429-17.143-25.219-17.143-41.371s5.714-29.943 17.143-41.371c11.429-11.429 25.219-17.143 41.371-17.143s29.867 5.79 41.143 17.371zM271.949 274.742c11.581 11.581 17.371 25.448 17.371 41.6s-5.714 29.943-17.143 41.371c-11.429 11.429-25.219 17.143-41.371 17.143s-29.943-5.714-41.371-17.143c-11.429-11.429-17.143-25.219-17.143-41.371s5.714-29.943 17.143-41.371c11.429-11.429 25.219-17.143 41.371-17.143s29.867 5.638 41.143 16.914zM623.035 99.656c11.581 11.276 17.371 24.99 17.371 41.143s-5.714 29.943-17.143 41.371c-11.429 11.429-25.219 17.143-41.371 17.143s-29.943-5.714-41.371-17.143c-11.429-11.429-17.143-25.219-17.143-41.371s5.714-29.943 17.143-41.371c11.429-11.429 25.219-17.143 41.371-17.143s29.867 5.79 41.143 17.371zM447.492 274.742c11.581 11.581 17.371 25.448 17.371 41.6s-5.714 29.943-17.143 41.371c-11.429 11.429-25.219 17.143-41.371 17.143s-29.943-5.714-41.371-17.143c-11.429-11.429-17.143-25.219-17.143-41.371s5.714-29.943 17.143-41.371c11.429-11.429 25.219-17.143 41.371-17.143s29.867 5.638 41.143 16.914zM271.949 450.285c11.581 11.581 17.371 25.448 17.371 41.6s-5.714 29.943-17.143 41.371c-11.429 11.429-25.219 17.143-41.371 17.143s-29.943-5.714-41.371-17.143c-11.429-11.429-17.143-25.219-17.143-41.371s5.714-29.943 17.143-41.371c11.429-11.429 25.219-17.143 41.371-17.143s29.867 5.638 41.143 16.914zM623.035 274.742c11.581 11.581 17.371 25.448 17.371 41.6s-5.714 29.943-17.143 41.371c-11.429 11.429-25.219 17.143-41.371 17.143s-29.943-5.714-41.371-17.143c-11.429-11.429-17.143-25.219-17.143-41.371s5.714-29.943 17.143-41.371c11.429-11.429 25.219-17.143 41.371-17.143s29.867 5.638 41.143 16.914zM447.492 450.285c11.581 11.581 17.371 25.448 17.371 41.6s-5.714 29.943-17.143 41.371c-11.429 11.429-25.219 17.143-41.371 17.143s-29.943-5.714-41.371-17.143c-11.429-11.429-17.143-25.219-17.143-41.371s5.714-29.943 17.143-41.371c11.429-11.429 25.219-17.143 41.371-17.143s29.867 5.638 41.143 16.914zM815.949 140.799v175.543c0 15.848-5.79 29.562-17.371 41.143s-25.295 17.371-41.143 17.371c-15.848 0-29.562-5.79-41.143-17.371s-17.371-25.295-17.371-41.143v-175.543c0-15.848 5.79-29.562 17.371-41.143s25.295-17.371 41.143-17.371c15.848 0 29.562 5.79 41.143 17.371s17.371 25.295 17.371 41.143zM623.035 450.285c11.581 11.581 17.371 25.448 17.371 41.6s-5.714 29.943-17.143 41.371c-11.429 11.429-25.219 17.143-41.371 17.143s-29.943-5.714-41.371-17.143c-11.429-11.429-17.143-25.219-17.143-41.371s5.714-29.943 17.143-41.371c11.429-11.429 25.219-17.143 41.371-17.143s29.867 5.638 41.143 16.914zM815.949 638.17v117.029c0 7.924-2.895 14.781-8.686 20.571s-12.648 8.686-20.571 8.686h-585.143c-7.924 0-14.781-2.895-20.571-8.686s-8.686-12.648-8.686-20.571v-117.029c0-7.924 2.895-14.781 8.686-20.571s12.648-8.686 20.571-8.686h585.143c7.924 0 14.781 2.895 20.571 8.686s8.686 12.648 8.686 20.571zM798.578 450.285c11.581 11.581 17.371 25.448 17.371 41.6s-5.714 29.943-17.143 41.371c-11.429 11.429-25.219 17.143-41.371 17.143s-29.943-5.714-41.371-17.143c-11.429-11.429-17.143-25.219-17.143-41.371s5.714-29.943 17.143-41.371c11.429-11.429 25.219-17.143 41.371-17.143s29.867 5.638 41.143 16.914zM874.463 784.456v-702.171c0-15.848-5.79-29.562-17.371-41.143s-25.295-17.371-41.143-17.371h-643.657c-15.848 0-29.562 5.79-41.143 17.371s-17.371 25.295-17.371 41.143v702.171c0 15.848 5.79 29.562 17.371 41.143s25.295 17.371 41.143 17.371h643.657c15.848 0 29.562-5.79 41.143-17.371s17.371-25.295 17.371-41.143z" />
<glyph unicode="&#xe90e;" glyph-name="Icone-send" d="M920.179 837.942c10.057-7.314 14.171-17.067 12.343-29.257l-117.029-702.171c-1.524-8.838-6.4-15.695-14.629-20.571-4.267-2.438-8.99-3.657-14.171-3.657-3.352 0-7.010 0.762-10.971 2.286l-207.086 84.571-110.629-134.857c-5.486-7.010-12.952-10.514-22.4-10.514-3.962 0-7.314 0.61-10.057 1.829-5.79 2.133-10.438 5.714-13.943 10.743s-5.257 10.59-5.257 16.686v159.543l394.971 484.114-488.686-422.857-180.571 74.057c-11.276 4.267-17.371 12.648-18.286 25.143-0.61 12.19 4.267 21.181 14.629 26.971l760.686 438.857c4.571 2.743 9.448 4.114 14.629 4.114 6.095 0 11.581-1.676 16.457-5.029z" />
<glyph unicode="&#xe90f;" glyph-name="Icone-bed" d="M162.54 374.857h789.943c7.924 0 14.781-2.895 20.571-8.686s8.686-12.648 8.686-20.571v-204.8h-117.029v117.029h-702.171v-117.029h-117.029v555.886c0 7.924 2.895 14.781 8.686 20.571s12.648 8.686 20.571 8.686h58.514c7.924 0 14.781-2.895 20.571-8.686s8.686-12.648 8.686-20.571v-321.829zM391.568 438.4c22.857 22.857 34.286 50.438 34.286 82.743s-11.429 59.886-34.286 82.743c-22.857 22.857-50.438 34.286-82.743 34.286s-59.886-11.429-82.743-34.286c-22.857-22.857-34.286-50.438-34.286-82.743s11.429-59.886 34.286-82.743c22.857-22.857 50.438-34.286 82.743-34.286s59.886 11.429 82.743 34.286zM981.74 404.115v29.257c0 48.457-17.143 89.829-51.429 124.114s-75.657 51.429-124.114 51.429h-321.829c-7.924 0-14.781-2.895-20.571-8.686s-8.686-12.648-8.686-20.571v-175.543h526.629z" />
<glyph unicode="&#xe910;" glyph-name="Icone-check" d="M445.201 244.86l-149.378 149.378 68.074 68.074 81.304-81.545 237.658 237.899 68.074-68.074z" />
<glyph unicode="&#xe911;" glyph-name="Icone-lock" d="M396.597 491.885h234.057v87.771c0 32.305-11.429 59.886-34.286 82.743s-50.438 34.286-82.743 34.286c-32.305 0-59.886-11.429-82.743-34.286s-34.286-50.438-34.286-82.743v-87.771zM776.94 448v-263.314c0-12.19-4.267-22.552-12.8-31.086s-18.895-12.8-31.086-12.8h-438.857c-12.19 0-22.552 4.267-31.086 12.8s-12.8 18.895-12.8 31.086v263.314c0 12.19 4.267 22.552 12.8 31.086s18.895 12.8 31.086 12.8h14.629v87.771c0 56.076 20.114 104.229 60.343 144.457s88.381 60.343 144.457 60.343c56.076 0 104.229-20.114 144.457-60.343s60.343-88.381 60.343-144.457v-87.771h14.629c12.19 0 22.552-4.267 31.086-12.8s12.8-18.895 12.8-31.086z" />
<glyph unicode="&#xe912;" glyph-name="Icone-account" d="M512 243.2c-71.111 0-133.973 36.409-170.667 91.022 0.853 56.889 113.778 88.178 170.667 88.178s169.813-31.289 170.667-88.178c-36.693-54.613-99.556-91.022-170.667-91.022zM512 647.111c47.128 0 85.333-38.205 85.333-85.333s-38.205-85.333-85.333-85.333c-47.128 0-85.333 38.205-85.333 85.333s38.205 85.333 85.333 85.333zM512 732.444c-157.094 0-284.444-127.35-284.444-284.444 0-75.439 29.968-147.789 83.312-201.133s125.693-83.312 201.133-83.312c75.439 0 147.789 29.968 201.133 83.312s83.312 125.693 83.312 201.133c0 157.298-128 284.444-284.444 284.444z" />
<glyph unicode="&#xe913;" glyph-name="Icone-lock-mdp" d="M512.542 299.005c29.923 0 54.18 24.257 54.18 54.18 0 30.070-24.381 54.18-54.18 54.18-29.923 0-54.18-24.257-54.18-54.18s24.257-54.18 54.18-54.18zM675.081 542.815c29.923 0 54.18-24.257 54.18-54.18v-270.899c0-29.923-24.257-54.18-54.18-54.18h-325.079c-29.923 0-54.18 24.257-54.18 54.18v270.899c0 30.070 24.381 54.18 54.18 54.18h27.090v54.18c0 74.807 60.643 135.45 135.45 135.45 35.924 0 70.376-14.271 95.777-39.672s39.672-59.854 39.672-95.777v-54.18h27.090zM512.542 678.265c-44.884 0-81.27-36.386-81.27-81.27v-54.18h162.54v54.18c0 44.884-36.386 81.27-81.27 81.27z" />
<glyph unicode="&#xe914;" glyph-name="Icone-etoile" d="M512 275.342l175.787-106.098-46.649 199.964 155.307 134.542-204.516 17.636-79.929 188.302-79.929-188.302-204.516-17.636 155.022-134.542-46.364-199.964z" />
<glyph unicode="&#xe915;" glyph-name="Icone-delete" d="M781.274 740.030h-132.741l-37.926 37.926h-189.63l-37.926-37.926h-132.741v-75.852h530.963zM288.237 171.141c0-41.892 33.96-75.852 75.852-75.852h303.407c41.892 0 75.852 33.96 75.852 75.852v455.111h-455.111v-455.111z" />
<glyph unicode="&#xe916;" glyph-name="Icone-confirm-delete" d="M288.237 193.896c0-41.892 33.96-75.852 75.852-75.852h303.407c41.892 0 75.852 33.96 75.852 75.852v455.111h-455.111v-455.111zM381.535 463.929l53.476 53.476 80.782-80.403 80.403 80.403 53.476-53.476-80.403-80.403 80.403-80.403-53.476-53.476-80.403 80.403-80.403-80.403-53.476 53.476 80.403 80.403-80.782 80.403zM648.533 762.785l-37.926 37.926h-189.63l-37.926-37.926h-132.741v-75.852h530.963v75.852h-132.741z" />
<glyph unicode="&#xe917;" glyph-name="Icone-maj" d="M227.556 282.058v-118.502h118.502l349.502 349.502-118.502 118.502zM787.201 604.699c12.324 12.324 12.324 32.233 0 44.557l-73.945 73.945c-12.324 12.324-32.233 12.324-44.557 0l-57.829-57.829 118.502-118.502 57.829 57.829z" />
<glyph unicode="&#xe918;" glyph-name="Icone-menu-synthese1" d="M314.729 145.994l158.118 79.059v129.294l-158.118-67.529v-140.824zM288.376 332.935l166.353 71.235-166.353 71.235-166.353-71.235 166.353-71.235zM736.376 145.994l158.118 79.059v129.294l-158.118-67.529v-140.824zM710.024 332.935l166.353 71.235-166.353 71.235-166.353-71.235 166.353-71.235zM525.553 453.582l158.118 67.941v109.529l-158.118-67.529v-109.941zM499.2 609.641l181.588 77.824-181.588 77.824-181.588-77.824 181.588-77.824zM947.2 396.347v-171.294c0-9.882-2.608-19.078-7.824-27.588s-12.353-14.961-21.412-19.353l-184.471-92.235c-6.863-3.843-14.686-5.765-23.471-5.765s-16.608 1.922-23.471 5.765l-184.471 92.235c-1.373 0.549-2.333 1.098-2.882 1.647-0.549-0.549-1.51-1.098-2.882-1.647l-184.471-92.235c-6.863-3.843-14.686-5.765-23.471-5.765s-16.608 1.922-23.471 5.765l-184.471 92.235c-9.059 4.392-16.196 10.843-21.412 19.353s-7.824 17.706-7.824 27.588v171.294c0 10.431 2.951 20.039 8.853 28.824s13.657 15.373 23.265 19.765l178.706 76.588v164.706c0 10.431 2.951 20.039 8.853 28.824s13.657 15.373 23.265 19.765l184.471 79.059c6.314 2.745 13.176 4.118 20.588 4.118s14.275-1.373 20.588-4.118l184.471-79.059c9.608-4.392 17.363-10.98 23.265-19.765s8.853-18.392 8.853-28.824v-164.706l178.706-76.588c9.882-4.392 17.706-10.98 23.471-19.765s8.647-18.392 8.647-28.824z" />
<glyph unicode="&#xe919;" glyph-name="Icone-menu-synthese2" d="M412.8 699.8c0 16.1-10.15 30.275-23.1 39.9-20.3 15.225-32.9 36.225-32.9 59.5 0 46.375 50.225 84 112 84s112-37.625 112-84c0-23.275-12.6-44.275-32.9-59.5-12.95-9.625-23.1-23.8-23.1-39.9 0-22.4 18.2-40.6 40.6-40.6h99.4c46.375 0 84-37.625 84-84v-99.4c0-22.4 18.2-40.6 40.6-40.6 16.1 0 30.275 10.15 39.9 23.1 15.225 20.3 36.225 32.9 59.5 32.9 46.375 0 84-50.225 84-112s-37.625-112-84-112c-23.275 0-44.275 12.6-59.5 32.9-9.625 12.95-23.8 23.1-39.9 23.1-22.4 0-40.6-18.2-40.6-40.6v-211.4c0-46.375-37.625-84-84-84h-99.4c-22.4 0-40.6 18.2-40.6 40.6 0 16.1 10.15 30.275 23.1 39.9 20.3 15.225 32.9 36.225 32.9 59.5 0 46.375-50.225 84-112 84s-112-37.625-112-84c0-23.275 12.6-44.275 32.9-59.5 12.95-9.625 23.1-23.8 23.1-39.9 0-22.4-18.2-40.6-40.6-40.6h-211.4c-46.375 0-84 37.625-84 84v211.4c0 22.4 18.2 40.6 40.6 40.6 16.1 0 30.275-10.15 39.9-23.1 15.225-20.3 36.225-32.9 59.5-32.9 46.375 0 84 50.225 84 112s-37.625 112-84 112c-23.275 0-44.275-12.6-59.5-32.9-9.625-12.95-23.8-23.1-39.9-23.1-22.4 0-40.6 18.2-40.6 40.6v99.4c0 46.375 37.625 84 84 84h211.4c22.4 0 40.6 18.2 40.6 40.6z" />
</font>
</defs>
</svg>
